Our Nature 2018

دانلود جدید ترین فیلم و سریال های روز دنیا در پرشین دانلود ، اگر مشکلی برایتان پیش آمد لطفا از صفحه تماس با ما استفاده کنید.
دنبال چیزی می گردید؟
11
Our Nature 2018
Our Nature 2018
9.3میانگین امتیاز رای 3 نفر
لینک های دانلود پیشنمایش ارسال نظر فیلم های مرتبط

مستند

Our Nature 2018

Our Nature 2018طبیعت ما

تاریخ ارسال : ۲۰ بهمن ۱۳۹۷ تعداد نظرات : 2 نظر امتیاز : 5.6IMDB

زمان : 48 دقیقه

تعداد رای : N/AIMDB

امتیاز منتقدین : N/AIMDB

کیفیت : BluRay 4K

ژانر : مستند
کارگردان : N/A نویسنده : N/A
بازیگران : N/A

توضیح :

بیشتر از ده میلیون گونه مختلف بر روی سیاره زمین زندگی میکنند اما به تنهایی نمیتوانند بقا داشته باشند. همه چیز در زندگی به هم پیوسته است! این مستند زیبا دنیای شگفت انگیزی که از دیده انسان پنهان مانده است را نمایش میدهد و شما روابط غیر منتظره ای که میلیون ها گونه گیاهی و جانوری را به هم متصل میکند را شاهد خواهید بود
نام اثر : Our Nature سبک : مستند ژانر : مستند اکران : 2018 ساخت : N/A فرمت : mkv رده سنی : N/A زبان : انگلیسی امتیاز : 5.6 کیفیت : BluRay 4K مدت زمان : 48 دقیقه

این مستند توسط کاربر عزیز حسین صدیقی درخواست شده است،امیدواریم لذت کافی را از تماشای این مستند ببرید.

 

اطلاعات کامل کیفیت

Video
ID : 1
Format : AVC
Format/Info : Advanced Video Codec
Format profile : High@L5.1
Format settings : CABAC / 5 Ref Frames
Format settings, CABAC : Yes
Format settings, RefFrames : 5 frames
Codec ID : V_MPEG4/ISO/AVC
Duration : 48 min 55 s
Bit rate : 67.4 Mb/s
Width : 3 840 pixels
Height : 2 160 pixels
Display aspect ratio : 16:9
Frame rate mode : Constant
Frame rate : 23.976 (24000/1001) FPS
Color space : YUV
Chroma subsampling : 4:2:0
Bit depth : 8 bits
Scan type : Progressive
Bits/(Pixel*Frame) : 0.339
Stream size : 23.0 GiB (96%)
Title : Our.Nature.2018.DOCU.2160p.BluRay.x264.8bit.SDR.DTS-HD.MA.2.0-SWTYBLZ
Writing library : x264 core 157 r2935 545de2f
Encoding settings : cabac=1 / ref=5 / deblock=1:-1:-1 / analyse=0x3:0x113 / me=umh / subme=10 / psy=1 / psy_rd=1.00:0.15 / mixed_ref=1 / me_range=48 / chroma_me=1 / trellis=2 / 8x8dct=1 / cqm=0 / deadzone=21,11 / fast_pskip=1 / chroma_qp_offset=-3 / threads=67 / lookahead_threads=5 / sliced_threads=0 / nr=0 / decimate=0 / interlaced=0 / bluray_compat=0 / constrained_intra=0 / bframes=3 / b_pyramid=2 / b_adapt=2 / b_bias=0 / direct=3 / weightb=1 / open_gop=0 / weightp=2 / keyint=250 / keyint_min=23 / scenecut=40 / intra_refresh=0 / rc_lookahead=50 / rc=crf / mbtree=1 / crf=18.0 / qcomp=0.60 / qpmin=0 / qpmax=69 / qpstep=4 / ip_ratio=1.40 / aq=1:1.00
Language : English
Default : Yes
Forced : No

Audio #1
ID : 2
Format : DTS XLL
Format/Info : Digital Theater Systems
Commercial name : DTS-HD Master Audio
Codec ID : A_DTS
Duration : 48 min 55 s
Bit rate mode : Variable
Bit rate : 2 042 kb/s
Channel(s) : 2 channels
Channel layout : L R
Sampling rate : 48.0 kHz
Frame rate : 93.750 FPS (512 SPF)
Bit depth : 24 bits
Compression mode : Lossless
Stream size : 715 MiB (3%)
Title : Our.Nature.2018.DOCU.2160p.BluRay.x264.8bit.SDR.DTS-HD.MA.2.0-SWTYBLZ
Language : English
Default : Yes
Forced : No

Audio #2
ID : 3
Format : AC-3
Format/Info : Audio Coding 3
Commercial name : Dolby Digital
Codec ID : A_AC3
Duration : 48 min 55 s
Bit rate mode : Constant
Bit rate : 640 kb/s
Channel(s) : 2 channels
Channel layout : L R
Sampling rate : 48.0 kHz
Frame rate : 31.250 FPS (1536 SPF)
Bit depth : 16 bits
Compression mode : Lossy
Stream size : 224 MiB (1%)
Title : Our.Nature.2018.DOCU.2160p.BluRay.x264.8bit.SDR.DTS-HD.MA.2.0-SWTYBLZ
Language : English
Service kind : Complete Main
Default : No
Forced : No

Menu
۰۰:۰۰:۰۰٫۰۰۰ : :Chapter 1
۰۰:۰۲:۳۳٫۲۳۶ : :Chapter 2
۰۰:۱۰:۱۱٫۴۴۳ : :Chapter 3
۰۰:۱۶:۵۳٫۲۶۲ : :Chapter 4
۰۰:۲۵:۰۶٫۷۵۵ : :Chapter 5
۰۰:۳۹:۰۷٫۱۳۶ : :Chapter 6
۰۰:۴۵:۳۱٫۹۷۹ : :Chapter 7

بازیگران

ستارگانی که در فیلم ایفای نقش کرده اند

فیلم و سریال های مرتبط

حتما نگاه کنید

دیدگاهتان را بنویسید

نشانی ایمیل شما منتشر نخواهد شد. بخش‌های موردنیاز علامت‌گذاری شده‌اند *

63 − 62 =

  1. حسین صدیقی گفت:

    سلام
    احسنت دست مریزاد واقعا کارتون عالیه سایت خیلی خوبی راه اندازی کردین . یه مستند درخواست دادم طی دو روز واسم با بهترین کیفیت (۴k ) آماده کردند. دمتون گرم انشالله کارتون را با قدرت ادامه بدین ممنون

  2. حسین صدیقی گفت:

    ژانر مستند با کیفیت عالی و فیلم های رایگان ۴k هم اضافه کنید بازم ممنون